[Login] or [Signup]
Login
Username:
Password:
[Signup]
[Recover Account]


Poll


You must be logged in to view polls



Torrent Details For "Despicable Me Trilogy 1080p BluRay Dual Audio Hindi DD 5.1 & DTS 5.1 English DTS 5.1 MAVI"

Despicable Me Trilogy 1080p BluRay Dual Audio Hindi DD 5.1 & DTS 5.1 English DTS 5.1 MAVI

Download this torrent | Magnet Download
Health:
Seeds: 64
Leechers: 291
Completed: 532 
Last Checked: 15-10-2017 18:25:06
External Torrent
Update Stats


Poster
No poster


iMDB
Imdb Picture Title: Despicable Me
Year: 2010
Runtime: 95 minutes
Votes: 422717
Rating: 7.7/10
Language: English
Country: USA, France
All Genres: Animation, Adventure, Comedy, Family
Plot Outline: When a criminal mastermind uses a trio of orphan girls as pawns for a grand scheme, he finds their love is profoundly changing him for the better.
Tagline: Who's afraid of the Big Bad Gru? (French Translation)
Director: Pierre Coffin
Chris Renaud
Writing By: Cinco Paul,Ken Daurio,Sergio Pablos,
Produced By: John Cohen,Janet Healy,Christopher Meledandri,Sergio Pablos,Nina Rappaport,Robert Taylor,
Music: Heitor Pereira Pharrell Williams
Cast:
Steve Carell as Gru
Jason Segel as Vector
Russell Brand as Dr. Nefario
Julie Andrews as Gru's Mom
Will Arnett as Mr. Perkins
Kristen Wiig as Miss Hattie
Miranda Cosgrove as Margo
Dana Gaier as Edith
Elsie Fisher as Agnes
Pierre Coffin as Tim the Minion / Bob the Minion / Mark the Minion / Phil the Minion / Stuart the Minion
Trailers:
Despicable Me: Trailer #2
Despicable Me: Super Bowl Trailer
Despicable Me
Despicable Me: International Trailer #1
Despicable Me


Details
Name:Despicable Me Trilogy 1080p BluRay Dual Audio Hindi DD 5.1 & DTS 5.1 English DTS 5.1 MAVI
Description:

 

Movie Encode From Full BD/BDREMUX

Despicable Me Trilogy 1080p BluRay Dual Audio Hindi DD 5.1 & DTS 5.1 English DTS 5.1 MAVI

 IMDB Link

 Join Us Now

 Join Us Now FaceBook

 Org Bluray/DVD Audio

Movie Name :  Despicable Me 2010
Runtime : 1.34 Min
Audio : English DTS 5.1/ Hindi DD 5.1(TBI Thanks)
Size : 4.29GB


Movie Name :  Despicable Me 2 2013
Runtime : 1.38 Min
Audio : English DTS 5.1/ Hindi DTS 5.1(TBI Thanks)
Size : 4.67GB


Movie Name :  Despicable Me 3 2017
Runtime : 1.29 Min
Audio : English DTS 5.1/ Hindi DTS 5.1(Rohit Thanks)
Size : 4.75GB




 Sample Include in torrent

Video
ID                                       : 1
Format                                   : AVC
Format/Info                              : Advanced Video Codec
Format profile                           : High@L4.2
Format settings                          : CABAC / 4 Ref Frames
Format settings, CABAC                   : Yes
Format settings, RefFrames               : 4 frames
Codec ID                                 : V_MPEG4/ISO/AVC
Duration                                 : 1 h 34 min
Bit rate mode                            : Variable
Bit rate                                 : 4 500 kb/s
Maximum bit rate                         : 62.5 Mb/s
Width                                    : 1 920 pixels
Height                                   : 1 040 pixels
Display aspect ratio                     : 1.85:1
Frame rate mode                          : Constant
Frame rate                               : 23.976 (24000/1001) FPS
Color space                              : YUV
Chroma subsampling                       : 4:2:0
Bit depth                                : 8 bits
Scan type                                : Progressive
Bits/(Pixel*Frame)                       : 0.094
Stream size                              : 2.98 GiB (69%)
Title                                    : Despicable Me 2010 1080p BluRay Dual Audio Hindi DD 5.1 English DTS 5.1 MAVI
Default                                  : Yes
Forced                                   : No

Audio #1
ID                                       : 2
Format                                   : DTS
Format/Info                              : Digital Theater Systems
Mode                                     : 16
Format settings, Endianness              : Big
Codec ID                                 : A_DTS
Duration                                 : 1 h 34 min
Bit rate mode                            : Constant
Bit rate                                 : 1 509 kb/s
Channel(s)                               : 6 channels
Channel positions                        : Front: L C R, Side: L R, LFE
Sampling rate                            : 48.0 kHz
Frame rate                               : 93.750 FPS (512 SPF)
Bit depth                                : 24 bits
Compression mode                         : Lossy
Stream size                              : 1 023 MiB (23%)
Title                                    : English-DTS-5.1-1509kbps
Language                                 : English
Default                                  : Yes
Forced                                   : No

Audio #2
ID                                       : 3
Format                                   : AC-3
Format/Info                              : Audio Coding 3
Format settings, Endianness              : Big
Codec ID                                 : A_AC3
Duration                                 : 1 h 34 min
Bit rate mode                            : Constant
Bit rate                                 : 448 kb/s
Channel(s)                               : 6 channels
Channel positions                        : Front: L C R, Side: L R, LFE
Sampling rate                            : 48.0 kHz
Frame rate                               : 31.250 FPS (1536 SPF)
Bit depth                                : 16 bits
Compression mode                         : Lossy
Delay relative to video                  : 2 s 260 ms
Stream size                              : 303 MiB (7%)
Title                                    : Hindi-DVD-DD-5.1-448kbps
Language                                 : Hindi
Service kind                             : Complete Main
Default                                  : No
Forced                                   : No

Text
ID                                       : 4
Format                                   : PGS
Codec ID                                 : S_HDMV/PGS
Codec ID/Info                            : Picture based subtitle format used on BDs/HD-DVDs
Duration                                 : 1 h 34 min
Bit rate                                 : 31.7 kb/s
Count of elements                        : 2456
Stream size                              : 21.4 MiB (0%)
Title                                    : English-SDH-PGS
Language                                 : English
Default                                  : No
Forced                                   : No

Menu
00:00:00.000                             : en:00:00:00.000
00:03:22.411                             : en:00:03:22.411
00:06:31.891                             : en:00:06:31.891
00:12:05.099                             : en:00:12:05.099
00:13:50.496                             : en:00:13:50.496
00:18:38.826                             : en:00:18:38.826
00:23:06.844                             : en:00:23:06.844
00:25:56.221                             : en:00:25:56.221
00:30:40.839                             : en:00:30:40.839
00:34:48.753                             : en:00:34:48.753
00:39:43.047                             : en:00:39:43.047
00:43:38.366                             : en:00:43:38.366
00:48:19.188                             : en:00:48:19.188
00:52:52.502                             : en:00:52:52.502
00:56:46.111                             : en:00:56:46.111
01:02:08.016                             : en:01:02:08.016
01:09:23.868                             : en:01:09:23.868
01:16:25.456                             : en:01:16:25.456
01:22:41.581                             : en:01:22:41.581
01:27:35.375                             : en:01:27:35.375


Despicable me 2010


                   


Despicable me 2 2013


                   


Despicable me 3 2017


                   

Category:Movies > 1080P Bluray
Lang:Hindi
Total Size:13.92 GB
Info Hash:8c4e4a0990b570fd87cc432ed6a12b6d3829421f
Added By:Sup2425
Date Added:13-10-2017 12:49:59
Views:157
Hits:45

Ratings:Not Yet Rated (Log in to rate it)


Tracker:
udp://inferno.demonoid.pw:3391/announce


File List: 


Comments

No comments still posted

Powered by 10 Hamsters v2-svn -|- Page Generated In 1.925870 secs.
-|- RSS Feed -|- Feed Info
Theme By: Nikkbu